WLCN-西城中文站

QQ登录

只需一步,快速开始

查看: 1348|回复: 9

[录影带] Linkin Park - Guilty All The Same [1080P/193MB/度娘]

[复制链接]

该用户从未签到

发表于 2014-6-21 22:08:37 | 显示全部楼层 |阅读模式

马上注册,结交更多好友,享用更多功能,让你轻松玩转社区。

您需要 登录 才可以下载或查看,没有帐号?立即注册

x
[1080P]Linkin Park - Guilty All The Same (feat. Rakim) [Project Spark- Linkin Pa.jpg
视频信息:
General
Complete name                    : E:\baiduyundownload\[1080P]Linkin Park - Guilty All The Same (feat. Rakim) [Project Spark- Linkin Park Version].mp4
Format                           : MPEG-4
Format profile                   : Base Media
Codec ID                         : isom
File size                        : 193 MiB
Duration                         : 7mn 5s
Overall bit rate                 : 3 804 Kbps
Writing application              : Lavf54.29.104

Video
ID                               : 1
Format                           : AVC
Format/Info                      : Advanced Video Codec
Format profile                   : High@L4.0
Format settings, CABAC           : Yes
Format settings, ReFrames        : 2 frames
Codec ID                         : avc1
Codec ID/Info                    : Advanced Video Coding
Duration                         : 7mn 5s
Bit rate                         : 3 672 Kbps
Width                            : 1 920 pixels
Height                           : 1 080 pixels
Display aspect ratio             : 16:9
Frame rate mode                  : Constant
Frame rate                       : 30.000 fps
Color space                      : YUV
Chroma subsampling               : 4:2:0
Bit depth                        : 8 bits
Scan type                        : Progressive
Bits/(Pixel*Frame)               : 0.059
Stream size                      : 186 MiB (97%)

Audio
ID                               : 2
Format                           : AAC
Format/Info                      : Advanced Audio Codec
Format profile                   : LC
Codec ID                         : 40
Duration                         : 7mn 5s
Bit rate mode                    : Constant
Bit rate                         : 126 Kbps
Channel(s)                       : 2 channels
Channel positions                : Front: L R
Sampling rate                    : 44.1 KHz
Compression mode                 : Lossy
Stream size                      : 6.38 MiB (3%)


下载地址:
http://pan.baidu.com/s/1gdiRSob

签到天数: 1 天

[LV.1]初来乍到

发表于 2014-6-21 22:31:33 | 显示全部楼层
感谢楼主分享!
听这张新专辑的时候,窝最先对这首歌有点感觉~~
他们的风格有些改变,感觉还不错~~
回复 支持 反对

使用道具 举报

该用户从未签到

发表于 2014-6-21 22:32:37 | 显示全部楼层
感谢楼主分享!
好久没听了。。。。。
回复 支持 反对

使用道具 举报

签到天数: 159 天

[LV.7]常住居民III

发表于 2014-6-22 03:48:02 | 显示全部楼层
{:soso_e100:}打个招呼。。。在看比赛。。。还木有进球。。。
回复 支持 反对

使用道具 举报

签到天数: 13 天

[LV.3]偶尔看看II

发表于 2014-6-22 09:07:22 | 显示全部楼层
非常精彩的MV,下载收藏感谢分享
回复 支持 反对

使用道具 举报

该用户从未签到

发表于 2014-6-24 00:40:36 | 显示全部楼层
感谢楼主分享
回复 支持 反对

使用道具 举报

该用户从未签到

发表于 2014-6-27 17:05:37 | 显示全部楼层
这个必须收藏!  顶顶顶顶顶顶顶顶顶顶顶顶顶顶
回复 支持 反对

使用道具 举报

该用户从未签到

发表于 2014-10-4 20:11:19 | 显示全部楼层
可以回复了吧。。。。。。。
回复 支持 反对

使用道具 举报

该用户从未签到

发表于 2016-10-18 12:30:15 | 显示全部楼层
曾经拥有的不要忘记;不能得到的更要珍惜;属于自己的不要放弃;已经失去的留作回忆。我刚来~~~嘿嘿~~
回复 支持 反对

使用道具 举报

您需要登录后才可以回帖 登录 | 立即注册

本版积分规则

关于本站|WLCN-西城中文站 ( 黑ICP备14000173号-2   

GMT+8, 2018-1-22 12:14

Powered by Discuz! X3.2 Licensed

© 2001-2013 Comsenz Inc.

快速回复 返回顶部 返回列表