WLCN-西城中文站

QQ登录

只需一步,快速开始

查看: 1923|回复: 15

[录影带] 【洗版资源】Backstreet Boys - In A World Like This [1080i/209M/度娘]

[复制链接]

该用户从未签到

发表于 2014-6-28 23:42:53 | 显示全部楼层 |阅读模式

马上注册,结交更多好友,享用更多功能,让你轻松玩转社区。

您需要 登录 才可以下载或查看,没有帐号?立即注册

x
1080i全高清MV,质量优于之前81M的Youtube版本,不喜勿下

部分截图:
snapshot20140628233055.jpg

snapshot20140628233106.jpg

snapshot20140628233151.jpg

snapshot20140628233234.jpg
snapshot20140628233202.jpg

snapshot20140628233118.jpg


视频信息:
General
ID                               : 1 (0x1)
Complete name                    : E:\baiduyundownload\Backstreet Boys - In A World Like This (VH1HD-1080i-DD5.1-CELOBRAZiL).ts
Format                           : MPEG-TS
File size                        : 210 MiB
Duration                         : 3mn 39s
Overall bit rate                 : 8 032 Kbps

Video
ID                               : 5408 (0x1520)
Menu ID                          : 1 (0x1)
Format                           : AVC
Format/Info                      : Advanced Video Codec
Format profile                   : Main@L4.0
Format settings, CABAC           : Yes
Format settings, ReFrames        : 2 frames
Codec ID                         : 27
Duration                         : 3mn 39s
Bit rate                         : 7 247 Kbps
Width                            : 1 920 pixels
Height                           : 1 080 pixels
Display aspect ratio             : 16:9
Frame rate                       : 29.970 fps
Color space                      : YUV
Chroma subsampling               : 4:2:0
Bit depth                        : 8 bits
Scan type                        : MBAFF
Bits/(Pixel*Frame)               : 0.117
Stream size                      : 189 MiB (90%)
Color primaries                  : BT.709-5, BT.1361, IEC 61966-2-4, SMPTE RP177
Transfer characteristics         : BT.709-5, BT.1361
Matrix coefficients              : BT.709-5, BT.1361, IEC 61966-2-4 709, SMPTE RP177

Audio
ID                               : 5409 (0x1521)
Menu ID                          : 1 (0x1)
Format                           : AC-3
Format/Info                      : Audio Coding 3
Mode extension                   : CM (complete main)
Codec ID                         : 129
Duration                         : 3mn 39s
Bit rate mode                    : Constant
Bit rate                         : 384 Kbps
Channel(s)                       : 6 channels
Channel positions                : Front: L C R, Side: L R, LFE
Sampling rate                    : 48.0 KHz
Bit depth                        : 16 bits
Compression mode                 : Lossy
Stream size                      : 10.0 MiB (5%)
Language                         : English


下载地址:
http://pan.baidu.com/s/1gdj7Y5l

签到天数: 159 天

[LV.7]常住居民III

发表于 2014-6-29 00:11:31 | 显示全部楼层
谢谢分享。。。。。周末愉快哈。。。
回复 支持 反对

使用道具 举报

该用户从未签到

发表于 2014-6-29 16:43:25 | 显示全部楼层
好东西  顶顶顶顶顶顶顶顶顶顶顶顶顶顶
回复 支持 反对

使用道具 举报

该用户从未签到

发表于 2014-7-2 09:36:49 | 显示全部楼层
超爱这首歌
回复 支持 反对

使用道具 举报

该用户从未签到

发表于 2014-7-2 21:48:36 | 显示全部楼层
之前下载了他们的日本演唱会,感觉很不错
回复 支持 反对

使用道具 举报

该用户从未签到

发表于 2014-7-4 01:03:36 | 显示全部楼层
好像不是很清的样子

点评

那你觉得怎样才叫清晰  详情 回复 发表于 2014-7-4 19:29
回复 支持 反对

使用道具 举报

该用户从未签到

 楼主| 发表于 2014-7-4 19:29:37 | 显示全部楼层
allen8201 发表于 2014-7-4 01:03
好像不是很清的样子

那你觉得怎样才叫清晰
回复 支持 反对

使用道具 举报

签到天数: 1 天

[LV.1]初来乍到

发表于 2014-7-25 15:51:14 | 显示全部楼层
不错  下了看看
回复 支持 反对

使用道具 举报

该用户从未签到

发表于 2014-8-26 22:16:54 | 显示全部楼层
谢谢分享!!{:soso_e166:}
回复 支持 反对

使用道具 举报

该用户从未签到

发表于 2014-9-17 00:24:06 | 显示全部楼层
看看海能不能下载线
回复 支持 反对

使用道具 举报

签到天数: 1 天

[LV.1]初来乍到

发表于 2014-9-20 22:40:47 | 显示全部楼层
资源清晰度很好~~非常感谢分享!!
这首歌和MV都感觉暖暖的~~看到他们在一起唱歌给人的感觉很好~~
回复 支持 反对

使用道具 举报

该用户从未签到

发表于 2015-1-4 20:00:07 | 显示全部楼层
好,谢谢,能下载吗
回复 支持 反对

使用道具 举报

您需要登录后才可以回帖 登录 | 立即注册

本版积分规则

关于本站|WLCN-西城中文站 ( 黑ICP备14000173号-2   

GMT+8, 2018-1-24 09:44

Powered by Discuz! X3.2 Licensed

© 2001-2013 Comsenz Inc.

快速回复 返回顶部 返回列表