WLCN-西城中文站

QQ登录

只需一步,快速开始

查看: 1164|回复: 6

[录影带] Linkin Park - Until It's Gone [1080i/307M/度娘]

[复制链接]

该用户从未签到

发表于 2014-7-27 17:33:07 | 显示全部楼层 |阅读模式

马上注册,结交更多好友,享用更多功能,让你轻松玩转社区。

您需要 登录 才可以下载或查看,没有帐号?立即注册

x
MTV Live播出的版本,质量上佳,截图的马赛克是我的播放器的问题,可无视
s Gone [MTV Live HD].ts_thumbs_[2014.07.27_17.16.24].jpg
General
ID                               : 16 (0x10)
Complete name                    : D:\Downloads\Linkin Park - Until It's Gone [MTV Live HD].ts
Format                           : MPEG-TS
File size                        : 307 MiB
Duration                         : 3mn 53s
Overall bit rate                 : 11.0 Mbps

Video
ID                               : 70 (0x46)
Menu ID                          : 1 (0x1)
Format                           : AVC
Format/Info                      : Advanced Video Codec
Format profile                   : Main@L4.0
Format settings, CABAC           : Yes
Format settings, ReFrames        : 4 frames
Format settings, GOP             : M=1, N=64
Codec ID                         : 27
Duration                         : 3mn 53s
Bit rate                         : 10.1 Mbps
Width                            : 1 920 pixels
Height                           : 1 080 pixels
Display aspect ratio             : 16:9
Frame rate                       : 25.000 fps
Color space                      : YUV
Chroma subsampling               : 4:2:0
Bit depth                        : 8 bits
Scan type                        : Interlaced
Scan order                       : Top Field First
Bits/(Pixel*Frame)               : 0.195
Stream size                      : 281 MiB (91%)
Color primaries                  : BT.709-5, BT.1361, IEC 61966-2-4, SMPTE RP177
Transfer characteristics         : BT.709-5, BT.1361
Matrix coefficients              : BT.709-5, BT.1361, IEC 61966-2-4 709, SMPTE RP177

Audio
ID                               : 69 (0x45)
Menu ID                          : 1 (0x1)
Format                           : AC-3
Format/Info                      : Audio Coding 3
Mode extension                   : CM (complete main)
Codec ID                         : 6
Duration                         : 3mn 53s
Bit rate mode                    : Constant
Bit rate                         : 384 Kbps
Channel(s)                       : 6 channels
Channel positions                : Front: L C R, Side: L R, LFE
Sampling rate                    : 48.0 KHz
Bit depth                        : 16 bits
Compression mode                 : Lossy
Delay relative to video          : 20ms
Stream size                      : 10.7 MiB (3%)
Language                         : English
Language, more info              : Clean effects

下载地址:
http://pan.baidu.com/s/1o6mIiHc



签到天数: 657 天

[LV.9]以坛为家II

发表于 2014-7-27 23:32:57 | 显示全部楼层
看看五个字

评分

参与人数 1西城币 -5 收起 理由
NickyFheeily -5 .

查看全部评分

回复 支持 反对

使用道具 举报

该用户从未签到

发表于 2015-2-19 18:39:55 | 显示全部楼层
thanks for sharing..............
回复 支持 反对

使用道具 举报

该用户从未签到

发表于 2016-10-18 12:28:18 | 显示全部楼层
缘,来如惊鸿,去如飞燕,人生遇合,到处皆缘。缘未至,不得营求;缘既至,无从规避。
回复 支持 反对

使用道具 举报

您需要登录后才可以回帖 登录 | 立即注册

本版积分规则

关于本站|WLCN-西城中文站 ( 黑ICP备14000173号-2   

GMT+8, 2018-1-24 09:48

Powered by Discuz! X3.2 Licensed

© 2001-2013 Comsenz Inc.

快速回复 返回顶部 返回列表