WLCN-西城中文站

查看: 1554|回复: 11

[录影带] Nickelback 2013年里约摇滚音乐节1080P高清现场下载

  [复制链接]
发表于 2014-11-7 19:52:38 | 显示全部楼层 |阅读模式

马上注册,结交更多好友,享用更多功能,让你轻松玩转社区。

您需要 登录 才可以下载或查看,没有帐号?立即注册

x
本帖最后由 NickyFheeily 于 2014-11-7 19:53 编辑

难得上一次论坛,毕竟是医学生,课程很紧。这次分享一个旧现场,我一直听说WL的粉丝中也有不少人喜欢听五分的歌,但愿如此吧
Nickelback - Rock in Rio V 2013.mkv_thumbs_[2014.11.06_08.22.03].jpg
视频信息:
General
Unique ID                      : 238351549811690946720612818639260234859 (0xB350D6B586460165AADDAE25D758346B)
Complete name                  : D:\Downloads\Nickelback - Rock in Rio V 2013.mkv
Format                         : Matroska
Format version                 : Version 4 / Version 2
File size                      : 5.62 GiB
Duration                       : 1h 13mn
Overall bit rate               : 11.0 Mbps
Encoded date                   : UTC 2013-09-21 03:05:36
Writing application            : mkvmerge v6.4.1 ('Omega Point') built on Sep 16 2013 22:05:10
Writing library                : libebml v1.3.0 + libmatroska v1.4.1

Video
ID                             : 1
Format                         : AVC
Format/Info                    : Advanced Video Codec
Format profile                 : High@L4.0
Format settings, CABAC         : Yes
Format settings, ReFrames      : 2 frames
Codec ID                       : V_MPEG4/ISO/AVC
Duration                       : 1h 13mn
Bit rate                       : 10.4 Mbps
Width                          : 1 920 pixels
Height                         : 1 080 pixels
Display aspect ratio           : 16:9
Frame rate mode                : Constant
Frame rate                     : 30.000 fps
Original frame rate            : 29.970 fps
Color space                    : YUV
Chroma subsampling             : 4:2:0
Bit depth                      : 8 bits
Scan type                      : MBAFF
Bits/(Pixel*Frame)             : 0.167
Stream size                    : 5.31 GiB (95%)
Default                        : Yes
Forced                         : No

Audio
ID                             : 2
Format                         : AC-3
Format/Info                    : Audio Coding 3
Mode extension                 : CM (complete main)
Format settings, Endianness    : Big
Codec ID                       : A_AC3
Duration                       : 1h 13mn
Bit rate mode                  : Constant
Bit rate                       : 384 Kbps
Channel(s)                     : 6 channels
Channel positions              : Front: L C R, Side: L R, LFE
Sampling rate                  : 48.0 KHz
Bit depth                      : 16 bits
Compression mode               : Lossy
Delay relative to video        : 19ms
Stream size                    : 201 MiB (4%)
Default                        : Yes
Forced                         : No

歌单:01. Animals
02. Something in Your Mouth
03. Photograph
04. Far Away
05. When We Stand Together
06. Savin' Me
07. Too Bad
08. Someday
09. Side of a Bullet / Because of You : (T-Shirt Cannon & Booze Toss)
10. Gotta Be Somebody
11. Rockstar
12. Figured You Out
13. How You Remind Me
14. Burn It to the Ground

下载地址:
Nickelback - Rock in Rio V 2013.mkv
115网盘礼包码:5lbcp8vxwxuh
http://115.com/lb/5lbcp8vxwxuh


http://pan.baidu.com/s/1pJlwCt1



发表于 2014-11-20 10:41:12 | 显示全部楼层
好歌人人都喜欢
回复 支持 反对

使用道具 举报

发表于 2014-11-22 21:21:59 | 显示全部楼层
不错呦{:soso_e104:}
回复 支持 反对

使用道具 举报

发表于 2015-2-21 01:09:33 | 显示全部楼层
谢谢LZ的分享
回复 支持 反对

使用道具 举报

发表于 2015-4-10 19:53:58 | 显示全部楼层
111111111111

评分

参与人数 1西城币 -8 人气 -9 经验 -9 收起 理由
NickyFheeily -8 -9 -9 .

查看全部评分

回复 支持 反对

使用道具 举报

发表于 2015-4-27 19:17:50 | 显示全部楼层
多谢楼主分享!
回复 支持 反对

使用道具 举报

发表于 2015-5-12 01:17:55 | 显示全部楼层
只想说感谢楼主 终于找到了 但愿可以下
回复 支持 反对

使用道具 举报

发表于 2016-10-18 12:27:10 | 显示全部楼层
要在实践的荒野,没有早一步,也没有晚一步,于千万人中去邂逅自己的爱人,那是太难的缘分,世界上有太多的擦肩而过,更多的时候,我们只是在彼此不断的错过,错过鲜花烂漫的春,又错过了枫叶瑟索的秋,直到漫天白雪,年华不再,在一次次的辛酸感叹之后,才能终于了解——即使真挚,即使两个人都已是心有戚戚,我们的爱,依然需要时间来成全和考验。这世界有着太多的这样的限制与隐秘的禁忌,又有太多难以预测的变故和身不由己的离合,一个转身,也许就已经一辈子错过,要求奥道很多年以后,才会参透所有的争取与努力,也许还抵不果命运开的恶一个玩笑,上帝只在云端一眨眼,所有的结局,就都已经完全改变。”
回复 支持 反对

使用道具 举报

您需要登录后才可以回帖 登录 | 立即注册

本版积分规则

Powered by Discuz! X3.2 Licensed

© 2001-2013 Comsenz Inc.

快速回复 返回顶部 返回列表