WLCN-西城中文站

查看: 891|回复: 6

[录影带] Linkin Park - Final Masquerade [1080i/318M/度盘]

[复制链接]
发表于 2015-2-21 10:00:30 | 显示全部楼层 |阅读模式

马上注册,结交更多好友,享用更多功能,让你轻松玩转社区。

您需要 登录 才可以下载或查看,没有帐号?立即注册

x
闲的蛋疼而已,下不下自己看着办
Linkin Park - Final Masquerade [MTV Live HD].ts_thumbs_[2015.02.20_16.55.28].jpg

General
ID                               : 16 (0x10)
Complete name                    : E:\迅雷下载\Linkin Park - Final Masquerade [MTV Live HD].ts
Format                           : MPEG-TS
File size                        : 318 MiB
Duration                         : 4mn 2s
Overall bit rate                 : 11.0 Mbps

Video
ID                               : 1011 (0x3F3)
Menu ID                          : 1 (0x1)
Format                           : AVC
Format/Info                      : Advanced Video Codec
Format profile                   : Main@L4.0
Format settings, CABAC           : Yes
Format settings, ReFrames        : 4 frames
Format settings, GOP             : M=1, N=64
Codec ID                         : 27
Duration                         : 4mn 2s
Bit rate                         : 10.1 Mbps
Width                            : 1 920 pixels
Height                           : 1 080 pixels
Display aspect ratio             : 16:9
Frame rate                       : 25.000 fps
Color space                      : YUV
Chroma subsampling               : 4:2:0
Bit depth                        : 8 bits
Scan type                        : Interlaced
Scan order                       : Top Field First
Bits/(Pixel*Frame)               : 0.195
Stream size                      : 291 MiB (91%)
Color primaries                  : BT.709-5, BT.1361, IEC 61966-2-4, SMPTE RP177
Transfer characteristics         : BT.709-5, BT.1361
Matrix coefficients              : BT.709-5, BT.1361, IEC 61966-2-4 709, SMPTE RP177

Audio
ID                               : 1013 (0x3F5)
Menu ID                          : 1 (0x1)
Format                           : AC-3
Format/Info                      : Audio Coding 3
Mode extension                   : CM (complete main)
Codec ID                         : 6
Duration                         : 4mn 2s
Bit rate mode                    : Constant
Bit rate                         : 384 Kbps
Channel(s)                       : 6 channels
Channel positions                : Front: L C R, Side: L R, LFE
Sampling rate                    : 48.0 KHz
Bit depth                        : 16 bits
Compression mode                 : Lossy
Delay relative to video          : 55ms
Stream size                      : 11.1 MiB (3%)
Language                         : English
Language, more info              : Clean effects


地址:
http://pan.baidu.com/s/1qWyo40k

发表于 2015-2-22 00:28:37 | 显示全部楼层
非常谢谢{:soso_e163:}
回复 支持 反对

使用道具 举报

发表于 2015-2-22 02:17:32 | 显示全部楼层
喜欢,非常感谢
回复 支持 反对

使用道具 举报

发表于 2016-10-18 12:23:08 | 显示全部楼层
我以为小鸟飞不过沧海,是以为小鸟没有飞过沧海的勇气,十年以后我才发现,不是小鸟飞不过去,而是沧海的那一头,早已没有了等待……
回复 支持 反对

使用道具 举报

您需要登录后才可以回帖 登录 | 立即注册

本版积分规则

Powered by Discuz! X3.2 Licensed

© 2001-2013 Comsenz Inc.

快速回复 返回顶部 返回列表