WLCN-西城中文站

QQ登录

只需一步,快速开始

查看: 778|回复: 5

[录影带] 【老资源】Boyzone - A Tribute To Stephen Gately 21.05.2010

[复制链接]

该用户从未签到

发表于 2015-4-21 19:13:27 | 显示全部楼层 |阅读模式

马上注册,结交更多好友,享用更多功能,让你轻松玩转社区。

您需要 登录 才可以下载或查看,没有帐号?立即注册

x
本帖最后由 NickyFheeily 于 2015-4-21 19:15 编辑

5年前BZ纪念steo的完整现场,我在外网搜电影种子的时候找到的,目测不少人只看过和WL合唱NMW的片段,权当扫盲……视频质量一般,只有360p,,本来想找找看有没有1080i的高清直录原档但是没找到,凑合着看吧
Boyzone - A Tribute To Stephen Gately 21.Mar.2010.avi_thumbs_[2015.04.21_18.57.43].jpg
视频信息:
General
Complete name                  : E:\迅雷下载\Boyzone - A Tribute To Stephen Gately 21.Mar.2010.avi
Format                         : AVI
Format/Info                    : Audio Video Interleave
File size                      : 406 MiB
Duration                       : 47mn 31s
Overall bit rate               : 1 196 Kbps
Writing application            : VirtualDubMod 1.5.10.2 (build 2540/release)
Writing library                : VirtualDubMod build 2540/release

Video
ID                             : 0
Format                         : MPEG-4 Visual
Format profile                 : Advanced Simple@L5
Format settings, BVOP          : Yes
Format settings, QPel          : No
Format settings, GMC           : No warppoints
Format settings, Matrix        : Default (H.263)
Codec ID                       : XVID
Codec ID/Hint                  : XviD
Duration                       : 47mn 31s
Bit rate                       : 994 Kbps
Width                          : 624 pixels
Height                         : 352 pixels
Display aspect ratio           : 16:9
Frame rate                     : 25.000 fps
Color space                    : YUV
Chroma subsampling             : 4:2:0
Bit depth                      : 8 bits
Scan type                      : Progressive
Compression mode               : Lossy
Bits/(Pixel*Frame)             : 0.181
Stream size                    : 338 MiB (83%)
Writing library                : XviD 1.2.1 (UTC 2008-12-04)

Audio
ID                             : 1
Format                         : MPEG Audio
Format version                 : Version 1
Format profile                 : Layer 3
Mode                           : Joint stereo
Mode extension                 : MS Stereo
Codec ID                       : 55
Codec ID/Hint                  : MP3
Duration                       : 47mn 31s
Bit rate mode                  : Constant
Bit rate                       : 192 Kbps
Channel(s)                     : 2 channels
Sampling rate                  : 48.0 KHz
Compression mode               : Lossy
Stream size                    : 65.3 MiB (16%)
Alignment                      : Aligned on interleaves
Interleave, duration           : 40 ms (1.00 video frame)
Interleave, preload duration   : 504 ms

下载地址:http://yunpan.cn/cVUB3nR9LLvRv (提取码:ff43)


另附BZ和WL合唱NMW的片段,1080i TS直录原档,权当补档,可收藏
http://yunpan.cn/cVUB8ATpJMi67 (提取码:bc83)


签到天数: 159 天

[LV.7]常住居民III

发表于 2015-4-23 23:53:29 | 显示全部楼层
steo。。。可惜了。。。
回复 支持 反对

使用道具 举报

签到天数: 1 天

[LV.1]初来乍到

发表于 2015-4-29 13:13:33 | 显示全部楼层
have  a   look   
回复 支持 反对

使用道具 举报

该用户从未签到

发表于 2016-1-27 16:16:11 | 显示全部楼层
清晰度良心~~
回复 支持 反对

使用道具 举报

签到天数: 13 天

[LV.3]偶尔看看II

发表于 2016-1-28 09:13:17 | 显示全部楼层
这个真的超级经典
回复 支持 反对

使用道具 举报

该用户从未签到

发表于 2016-10-18 12:19:03 | 显示全部楼层
我以为小鸟飞不过沧海,是以为小鸟没有飞过沧海的勇气,十年以后我才发现,不是小鸟飞不过去,而是沧海的那一头,早已没有了等待……
回复 支持 反对

使用道具 举报

您需要登录后才可以回帖 登录 | 立即注册

本版积分规则

关于本站|WLCN-西城中文站 ( 黑ICP备14000173号-2   

GMT+8, 2018-1-22 12:02

Powered by Discuz! X3.2 Licensed

© 2001-2013 Comsenz Inc.

快速回复 返回顶部 返回列表